Filecrypt zeigt vereinzelt Files als "n/a". Die Downloads sind trotzdem komplett.

DNS SERVER AENDERNum der staatlichen Zensur zu umgehen. Sollten wir von eurem Provider geseprrt werden, nutzt den TOR BROWSER oder ändert euren DNS SERVER.

Filmwünsche können bei uns im Forum abgegeben werden

Wir Speichern Nicht




 
 
 
Top Releases
I.Tonya.2017.German.AC3.1080...
Deine.Juliet.2018.German.DL....
Ideal.Home.2018.German.DL.10...
Ideal.Home.Ein.Vater.kommt.s...
Deine.Juliet.2018.German.DTS...
Deine.Juliet.2018.MULTi.COMP...
Ideal.Home.Ein.Vater.kommt.s...
Ideal.Home.Ein.Vater.kommt.s...
Cam.2018.German.AC3.DL.1080p...
Die.Frau.die.vorausgeht.Germ...

Cinedubs
Venom.2018.German.AC3D.5.1.D...
Venom.2018.German.AC3D.5.1.D...
Das.krumme.Haus.2017.GERMAN....
Das.krumme.Haus.2017.GERMAN....
I.Still.See.You.Sie.lassen.d...
I.Still.See.You.Sie.lassen.d...
Braven.2018.German.AC3D.DL.1...
Braven.2018.German.AC3D.DL.7...
Smallfoot.Ein.eisigartiges.A...
Smallfoot.Ein.eisigartiges.A...

Neuerscheinungen 2017-18
Gotti.A.Real.American.Godfat...
American.Romance.2016.German...
Comanche.Moon.S01.2008.MULTi...
Boar.2017.German.DL.1080p.Bl...
Robin.Hood.Ein.Leben.fuer.Ri...
Robert.3.The.Toymaker.2017.C...
Robert.3.The.Toymaker.2017.G...
Robert.3.The.Toymaker.2017.G...
Scorpion.King.5.Das.Buch.der...
The.Scorpion.King.5.Das.Buch...

XXX
SugarCookie.18.08.10.Marica....
WankItNow.17.12.01.Scarlett....
ProducersFun.17.11.26.Sierra...
WeFuckBlackGirls.18.11.26.Ki...
WankItNow.17.12.01.Eva.Watch...
Vixen.18.11.25.Danni.Rivers....
SexArt.18.11.25.Stefany.Moon...
Stunning18.18.11.26.Cira.Ner...
SugarCookie.18.08.20.Kira.Qu...
SpyFam.18.11.26.Alex.Blake.X...
ShesNew.18.11.25.River.Fox.A...
ProducersFun.17.11.17.Zaya.C...
WankItNow.17.12.02.Sophia.Sm...
ScamAngels.18.11.25.Bailey.B...
Twistys.18.11.26.Eliza.Ibarr...
Spizoo.18.11.26.Daisy.Stone....
RKPrime.18.11.26.Karmen.Karm...
SweetheartVideo.18.11.26.Sov...
Submissived.18.11.26.Jezebet...
TheLifeErotic.18.11.25.Liz.R...

3D
The.Art.of.Flight.3D.2011.Ge...
The.End.Of.The.World.3D.2010...
The.First.Avenger.Civil.War....
Die.Unglaublichen.2.2018.3D....
Skyscraper.3D.2018.MULTi.COM...
Ant-Man.And.The.Wasp.3D.2018...
Ant.Man.and.the.Wasp.3D.2018...
Die.Unglaublichen.2.3D.2018....
Die.Unglaublichen.2.2018.3D....
Die.Unglaublichen.2.2018.3D....
Sharknado.6.The.Last.One.3D....
Deep.Kleine.Helden.der.Tiefs...
Deep.3D.2017.MULTI.COMPLETE....
Detective.Dee.und.die.Legend...
Detective.Dee.und.die.Legend...

Old_Stuff
Akte.X.S04.German.DTS.DL.108...
Akte.X.S03.German.DTS.DL.108...
Dunkirk.1958.COMPLETE.BLURAY...
Das.Wunder.von.Manhattan.199...
The.Amazing.Spiderman.2.Rise...
Rise.of.the.Predator.2014.Ge...
Detective.Dee.und.das.Geheim...
Detective.Dee.Und.Der.Fluch....
Ghost.Rider.Spirit.of.Vengea...
Species.IV.Das.Erwachen.2007...
Species.IV.Das.Erwachen.2007...
Hotel.Transsilvanien.2012.Ge...
The.Dead.2010.German.DL.1080...
The.Dead.2.India.2013.German...
Britney.Spears.Live.The.Femm...

Filme
Arrow.S06D01-4.MULTi.COMPLET...
Barry.Seal.Only.in.America.2...
Barry.Seal.Only.in.America.2...
4.Blocks.S02D01+2.GERMAN.COM...
The.Raid.2011.German.1080p.B...
Christiane.F.Wir.Kinder.vom....
Frankensteins.Sohn.1939.Germ...
June.2015.German.DL.1080p.Bl...
So.High.2001.German.AC3D.DL....
Penelope.2006.German.DL.AC3....
Freejack.Geisel.der.Zukunft....
Terminal.Rache.war.nie.schoe...
Kingpin.1996.EXTENDED.German...
Bob.der.Butler.2005.German.A...
Ein.Herz.und.eine.Kanone.-.G...
Octagon.Die.Rache.der.Ninja....
Im.Jahr.des.Drachen.1985.Ger...
I.Am.Your.Father.2015.AC3.DO...
Ich.glaub.mich.knutscht.ein....
Not.Fade.Away.2012.German.AC...
The.Marine.6.Close.Quarters....
Geheimnisse.der.Steppe.1955....
Die.Abenteuer.des.Tom.Sawyer...
Arrow.S06.GERMAN.DL.1080p.HD...

 
 
I.Tonya.2017.German.AC3.1080p.BluRay.x265-GTF

Jahr: 2017
Genre: Biografie, Komödie, Drama
Sprache: Deutsch AC3
Laufzeit: 1h 59mn
Bitrate: 1 920 Kbps
Format: MKV
Größe: 1.60 GiB
Release:

Beschreibung:

Tonya Harding (Margot Robbie) ist unter ärmsten Bedinungen aufgewachsen, doch wurde sie von ihrer wenig liebevollen Mutter LaVona Golden (Allison Janney) schon früh auf eine Karriere im Eiskunstlaufen vorbereitet. Zwar hat es Tonya mit ihrem aggressiven Auftreten, ihren selbstgenähten Kostümen und ihrer unkoventionellen Technik nicht leicht, doch ihr Talent ist unbestreitbar, ist sie doch die einzige Frau, der im Rahmen eines Wettbewerbs ein dreifacher Axel gelingt. Als sie sich langsam dem Höhepunkt ihrer Karriere nähert, wird ihre Konkurrentin Nancy Kerrigan (Caitlin Carver) bei einem Angriff verletzt und muss aus den amerikanischen Meisterschaften ausscheiden. Wie sich jedoch herausstellen soll, steckt Hardings Ex-Mann Jeff Gillooly (Sebastian Stan) hinter dem Angriff, weswegen ihr der gerade gewonnene Titel aberkannt wird und ihre Karriere urplötzlich beendet ist…



Complete name                            : gtf-itonya.mkv
Format                                   : Matroska
Format version                           : Version 4 / Version 2
File size                                : 1.60 GiB
Duration                                 : 1h 59mn
Overall bit rate                         : 1 920 Kbps
Movie name                               : gtf-itonya.mkv
Encoded date                             : UTC 2018-08-14T09:06:39Z
Writing application                      : mkvmerge v26.0.0 ('In The Game') 64-bit
Writing library                          : Lavf57.7.2
DURATION                                 : 01:54:13.240000000
NUMBER_OF_FRAMES                         : 46
NUMBER_OF_BYTES                          : 310226
_STATISTICS_WRITING_APP                  : mkvmerge v26.0.0 ('In The Game') 64-bit
_STATISTICS_WRITING_DATE_UTC             : 2018-12-05 02:02:03
_STATISTICS_TAGS                         : BPS DURATION NUMBER_OF_FRAMES NUMBER_OF_BYTES

Video
ID                                       : 1
Format                                   : HEVC
Format/Info                              : High Efficiency Video Coding
Format profile                           : Main@L4.0
Codec ID                                 : V_MPEGH/ISO/HEVC
Duration                                 : 1h 59mn
Bit rate                                 : 1 498 Kbps
Width                                    : 1 920 pixels
Height                                   : 804 pixels
Display aspect ratio                     : 2.40:1
Frame rate mode                          : Constant
Frame rate                               : 24.000 fps
Color space                              : YUV
Chroma subsampling                       : 4:2:0
Bit depth                                : 8 bits
Bits/(Pixel*Frame)                       : 0.040
Stream size                              : 1.25 GiB (78%)
Writing library                          : x265 2.1:[Windows][GCC 5.3.1][64 bit] 8bit
Encoding settings                        : wpp / ctu=64 / min-cu-size=8 / max-tu-size=32 / tu-intra-depth=1 / tu-inter-depth=1 / me=1 / subme=2 / merange=57 / no-rect / no-amp / max-merge=2 / temporal-mvp / no-early-skip / rskip / rdpenalty=0 / no-tskip / no-tskip-fast / no-strong-intra-smoothing / no-lossless / no-cu-lossless / no-constrained-intra / no-fast-intra / open-gop / no-temporal-layers / interlace=0 / keyint=240 / min-keyint=24 / scenecut=40 / rc-lookahead=20 / lookahead-slices=5 / bframes=4 / bframe-bias=0 / b-adapt=2 / ref=3 / limit-refs=3 / no-limit-modes / weightp / no-weightb / aq-mode=1 / qg-size=32 / aq-strength=1.00 / cbqpoffs=0 / crqpoffs=0 / rd=3 / psy-rd=2.00 / rdoq-level=0 / psy-rdoq=0.00 / log2-max-poc-lsb=8 / no-rd-refine / signhide / deblock=0:0 / no-sao / no-sao-non-deblock / b-pyramid / cutree / no-intra-refresh / rc=crf / crf=23.0 / qcomp=0.60 / qpmin=0 / qpmax=69 / qpstep=4 / ipratio=1.40 / pbratio=1.30
Default                                  : Yes
Forced                                   : No
DURATION                                 : 01:59:39.917000000
NUMBER_OF_FRAMES                         : 172318
NUMBER_OF_BYTES                          : 1334369844
_STATISTICS_WRITING_APP                  : mkvmerge v26.0.0 ('In The Game') 64-bit
_STATISTICS_WRITING_DATE_UTC             : 2018-12-05 02:02:03
_STATISTICS_TAGS                         : BPS DURATION NUMBER_OF_FRAMES NUMBER_OF_BYTES

Audio
ID                                       : 2
Format                                   : AC-3
Format/Info                              : Audio Coding 3
Mode extension                           : CM (complete main)
Format settings, Endianness              : Big
Codec ID                                 : A_AC3
Duration                                 : 1h 59mn
Bit rate mode                            : Constant
Bit rate                                 : 384 Kbps
Channel(s)                               : 6 channels
Channel positions                        : Front: L C R, Side: L R, LFE
Sampling rate                            : 48.0 KHz
Bit depth                                : 16 bits
Compression mode                         : Lossy
Delay relative to video                  : -5ms
Stream size                              : 329 MiB (20%)
Title                                    : Surround
Language                                 : German
Default                                  : Yes
Forced                                   : No
DURATION                                 : 01:59:40.096000000
NUMBER_OF_FRAMES                         : 224378
NUMBER_OF_BYTES                          : 344644608
_STATISTICS_WRITING_APP                  : mkvmerge v26.0.0 ('In The Game') 64-bit
_STATISTICS_WRITING_DATE_UTC             : 2018-12-05 02:02:03
_STATISTICS_TAGS                         : BPS DURATION NUMBER_OF_FRAMES NUMBER_OF_BYTES


Download:
Share Online Share OnlineShare OnlineShare Online
 

Kommentare